<?xml version="1.0" standalone="no"?>
<!DOCTYPE svg PUBLIC "-//W3C//DTD SVG 1.1//EN" "http://www.w3.org/Graphics/SVG/1.1/DTD/svg11.dtd">
<svg xmlns="http://www.w3.org/2000/svg">
<defs >
<font id="Trochut" horiz-adv-x="348" ><font-face
    font-family="Trochut"
    units-per-em="1000"
    panose-1="2 0 5 3 7 0 0 2 0 3"
    ascent="967"
    descent="-210"
    alphabetic="0" />
<glyph unicode=" " glyph-name="space" horiz-adv-x="200" />
<glyph unicode="!" glyph-name="exclam" horiz-adv-x="219" d="M60 671T75 685T109 700T143 686T159 646L128 154H91L60 646Q60 671 75 685ZM65 21T65 43T78 80T109 96T140 81T153 43T141 6T110 -10T78 5Z" />
<glyph unicode="&quot;" glyph-name="quotedbl" horiz-adv-x="346" d="M135 690V640L115 480H80L60 640V690H135ZM286 690V640L266 480H231L211 640V690H286Z" />
<glyph unicode="#" glyph-name="numbersign" horiz-adv-x="708" d="M264 268H398L427 430H293L264 268ZM604 218H465L427 0H351L389 218H255L217 0H141L179 218H43L52 268H188L217 430H80L89 480H226L263 690H339L302 480H436L473 690H548L511 480H650L641 430H503L474
268H613L604 218Z" />
<glyph unicode="$" glyph-name="dollar" horiz-adv-x="512" d="M248 -48V-10Q160 -7 105 35T50 173V184H129V162Q129 93 157 60T248 25V283L131 385Q73 435 73 514T120 644T248 700V749H288V698Q355 690 390 652T425 569V563H393Q393 592 365 625T288 664V394L412
286Q462 243 462 171T415 49T288 -8V-48H248ZM248 663Q163 650 163 555Q163 504 201 470L248 429V663ZM326 39T347 67T369 136T336 207L288 248V29Q326 39 347 67Z" />
<glyph unicode="%" glyph-name="percent" horiz-adv-x="781" d="M527 730H609L262 -30H180L527 730ZM346 507Q346 434 310 392T198 350T87 392T50 507V544Q50 617 86 658T198 700T309 659T346 544V507ZM259 478V573Q259 621 248 645T198 670T148 645T136 573V478Q136
431 148 406T198 380T247 405T259 478ZM731 146Q731 73 695 32T583 -10T472 31T435 146V183Q435 256 471 298T583 340T694 298T731 183V146ZM644 117V212Q644 260 633 285T583 310T533 285T521 212V117Q521 70 533 45T583 20T632 44T644 117Z" />
<glyph unicode="&amp;" glyph-name="ampersand" horiz-adv-x="642" d="M428 182V300H169V182Q169 111 201 68T298 25T395 67T428 182ZM538 40Q557 40 569 72L588 69Q588 60 582 44T569 18T546 0T510 -9Q455 -9 437 36Q375 -10 298 -10Q189 -10 125 64T60 254V436Q60
550 124 625T298 700Q383 700 447 647T512 499V490H426V508Q426 579 394 622T298 665T202 622T169 508V347H428V409H515V347H617V300H515V72Q515 40 538 40Z" />
<glyph unicode="&apos;" glyph-name="quotesingle" horiz-adv-x="195" d="M135 690V640L115 480H80L60 640V690H135Z" />
<glyph unicode="(" glyph-name="parenleft" horiz-adv-x="358" d="M298 -40Q191 -40 126 48T60 254V440Q60 557 125 643T298 730V700Q236 700 203 644T169 513V182Q169 106 202 48T298 -10V-40Z" />
<glyph unicode=")" glyph-name="parenright" horiz-adv-x="358" d="M60 -40V-10Q122 -10 155 48T189 182V513Q189 587 156 643T60 700V730Q167 730 232 644T298 440V254Q298 136 233 48T60 -40Z" />
<glyph unicode="*" glyph-name="asterisk" horiz-adv-x="500" d="M289 682T289 668T269 558Q327 644 334 651T354 658T381 646T395 619T384 594T298 531Q394 551 407 551H408Q421 551 430 540T439 514T431 487T406 475T298 492Q382 436 390 428T399 406T387 378Q374
365 360 365T338 373T272 462Q291 360 291 354V352Q291 339 280 330T254 320T228 329T216 351V352Q216 363 232 461Q176 378 168 370T145 362T118 373T106 400T113 422T207 491Q109 471 95 471H93Q80 471 70 482T60 508T69 534T91 546T202 530Q119 586 112 593T104
616T114 643T140 655T166 644T231 556Q213 653 213 667T224 691T250 700T277 691Z" />
<glyph unicode="+" glyph-name="plus" horiz-adv-x="350" d="M203 360V260H300V210H203V110H147V210H50V260H147V360H203Z" />
<glyph unicode="," glyph-name="comma" horiz-adv-x="184" d="M134 110Q134 39 114 -10T43 -98L30 -88Q45 -69 53 -34T64 51V110H134Z" />
<glyph unicode="-" glyph-name="hyphen" horiz-adv-x="325" d="M275 235H50V300H275V235Z" />
<glyph unicode="." glyph-name="period" horiz-adv-x="188" d="M50 21T50 43T63 80T94 96T125 81T138 43T125 6T94 -10T63 5Z" />
<glyph unicode="/" glyph-name="slash" horiz-adv-x="344" d="M208 729H284L136 -39H60L208 729Z" />
<glyph unicode="0" glyph-name="zero" horiz-adv-x="530" d="M470 260Q470 130 424 60T265 -10T106 59T60 260V429Q60 560 106 630T264 700T423 630T470 429V260ZM360 182V508Q360 605 336 636Q314 665 265 665Q194 665 178 601Q169 567 169 508V182Q169 84 193
54Q216 25 270 25T342 63T360 182Z" />
<glyph unicode="1" glyph-name="one" horiz-adv-x="296" d="M226 0H117V612L20 502V572L117 690H226V0Z" />
<glyph unicode="2" glyph-name="two" horiz-adv-x="458" d="M205 700Q291 700 344 651T398 530V476Q398 364 330 304Q287 266 230 229T138 164T84 100H387V0H10Q10 33 35 86T102 190T190 286T254 353Q289 398 289 474V565Q289 608 264 636T198 665T124 640T69
574L41 587Q50 606 67 628T100 664T145 689T205 700Z" />
<glyph unicode="3" glyph-name="three" horiz-adv-x="449" d="M275 476V565Q275 608 250 636T179 665Q107 665 60 574L32 587Q36 595 40 604T59 632T90 664T134 689T191 700Q277 700 330 651T384 530V515Q384 463 358 424T283 365Q335 346 364 304T394 209V189Q394
85 342 38T185 -10Q123 -10 80 22T20 112L46 120Q58 86 89 56T175 25Q285 25 285 147V253Q285 296 261 323T183 350L185 380Q275 383 275 476Z" />
<glyph unicode="4" glyph-name="four" horiz-adv-x="476" d="M389 0H280V183H20L291 690H398L152 232H280V369H389V232H416V182H389V0Z" />
<glyph unicode="5" glyph-name="five" horiz-adv-x="487" d="M442 228V212Q442 -10 233 -10Q171 -10 128 22T68 112L94 120Q106 86 137 56T223 25Q334 25 334 160V259Q334 415 228 415Q133 415 110 307H60V690H423V590H110V381Q149 450 238 450Q345 450 393 384T442 228Z" />
<glyph unicode="6" glyph-name="six" horiz-adv-x="497" d="M452 157Q452 87 396 39T256 -10T116 38T60 157V477Q60 700 269 700Q331 700 374 668T434 578L408 570Q396 604 365 634T279 665Q168 665 168 530V417Q210 450 275 450T396 403T452 284V157ZM343 118V323Q343
420 251 420Q212 420 190 399T168 348V118Q168 75 189 48T256 20Q343 20 343 118Z" />
<glyph unicode="7" glyph-name="seven" horiz-adv-x="443" d="M88 342V389H184Q237 513 322 602Q341 622 364 640H163Q100 640 87 588H10V690H441L443 675Q338 564 281 389H365V342H267Q225 187 225 0H109Q109 188 165 342H88Z" />
<glyph unicode="8" glyph-name="eight" horiz-adv-x="512" d="M452 515Q452 465 422 425T341 365Q394 345 425 305T457 214V157Q457 87 400 39T256 -10T113 38T55 157V214Q55 265 86 305T170 365Q119 385 90 424T60 515V534Q60 604 116 652T256 700T396 652T452
534V515ZM348 118V253Q348 295 326 322T256 350T186 323T163 253V118Q163 76 186 48T256 20T325 47T348 118ZM346 476V573Q346 616 324 643T256 670T187 643T165 573V476Q165 383 251 380H261Q305 381 325 407T346 476Z" />
<glyph unicode="9" glyph-name="nine" horiz-adv-x="497" d="M45 533Q45 603 101 651T241 700T381 652T437 533V213Q437 -10 228 -10Q166 -10 123 22T63 112L89 120Q101 86 132 56T218 25Q329 25 329 160V273Q287 240 222 240T101 287T45 406V533ZM154 572V367Q154
270 246 270Q285 270 307 291T329 342V572Q329 615 308 642T241 670Q154 670 154 572Z" />
<glyph unicode=":" glyph-name="colon" horiz-adv-x="188" d="M50 21T50 43T63 80T94 96T125 81T138 43T125 6T94 -10T63 5ZM50 331T50 353T63 390T94 406T125 391T138 353T125 316T94 300T63 315Z" />
<glyph unicode=";" glyph-name="semicolon" horiz-adv-x="193" d="M55 331T55 353T68 390T99 406T130 391T143 353T130 316T99 300T68 315ZM134 110Q134 39 114 -10T43 -98L30 -88Q45 -69 53 -34T64 51V110H134Z" />
<glyph unicode="&lt;" glyph-name="less" horiz-adv-x="519" d="M383 0L100 282L383 565L418 530L171 282L419 35L383 0Z" />
<glyph unicode="=" glyph-name="equal" horiz-adv-x="500" d="M450 300H50V350H450V300ZM450 160H50V210H450V160Z" />
<glyph unicode="&gt;" glyph-name="greater" horiz-adv-x="519" d="M419 282L136 0L100 35L348 282L101 530L136 565L419 282Z" />
<glyph unicode="?" glyph-name="question" horiz-adv-x="447" d="M289 516V571Q289 665 210 665Q174 665 152 640T130 576V507H50V523Q50 598 98 649T228 700T353 650T397 524V508Q397 433 335 353L227 214Q209 190 209 164V142H164V165Q164 201 178 229T261 402Q289
458 289 516ZM142 21T142 43T155 80T186 96T217 81T230 43T217 6T186 -10T155 5Z" />
<glyph unicode="@" glyph-name="at" horiz-adv-x="919" d="M613 -110V-145H298Q182 -145 121 -72T60 125V419Q60 544 121 617T298 690H621Q737 690 798 617T859 419V260Q859 138 800 64T638 -10H608Q538 -10 528 64Q499 -10 428 -10Q368 -10 333 33T297 149V322Q297
394 332 437T433 480T526 412V470H613V59Q613 25 639 25Q749 25 749 182V498Q749 568 717 611T621 655H298Q234 655 202 612T169 498V47Q169 -24 201 -67T298 -110H613ZM526 334Q526 380 504 415T443 450Q384 450 384 356V115Q384 22 442 22Q483 22 504 55T526
137V334Z" />
<glyph unicode="A" glyph-name="A" horiz-adv-x="606" d="M536 0H427V110Q414 67 373 29T271 -10Q175 -10 118 57T60 247V446Q60 569 123 634T273 700Q309 700 338 685T386 648Q415 611 427 575V690H536V0ZM426 227V468Q426 542 387 603T283 665Q246 665 221 646T185
596Q168 545 168 497V197Q168 109 201 67T294 25T390 85T426 227Z" />
<glyph unicode="B" glyph-name="B" horiz-adv-x="537" d="M497 184Q497 0 251 0H70V690H226Q364 690 422 642Q472 601 472 518Q472 453 442 419T348 365Q420 343 458 301T497 184ZM369 524Q369 611 318 636Q274 656 197 656H178V378H218Q369 378 369 524ZM307
34T349 71T392 189T350 309T242 349H178V34H213Q307 34 349 71Z" />
<glyph unicode="C" glyph-name="C" horiz-adv-x="562" d="M512 486H426V509Q426 579 394 622T298 665T202 622T169 509V182Q169 111 201 68T297 25T393 68T426 182V204H512V194Q512 140 491 99T436 34Q370 -10 298 -10Q189 -10 125 65T60 254V436Q60 550 124 625T298
700Q383 700 447 647T512 499V486Z" />
<glyph unicode="D" glyph-name="D" horiz-adv-x="576" d="M516 269Q516 153 445 77T261 0H70V690H261Q373 690 444 614T516 421V269ZM408 222V468Q408 559 359 607T224 656H178V34H224Q310 34 359 82T408 222Z" />
<glyph unicode="E" glyph-name="E" horiz-adv-x="567" d="M512 486H426V508Q426 579 394 622T298 665T202 622T169 508V388H433V341H169V182Q169 111 201 68T297 25T393 68T426 182V204H512V194Q512 140 491 99T436 34Q370 -10 298 -10Q189 -10 125 65T60 254V436Q60
550 124 625T298 700Q383 700 447 647T512 499V486Z" />
<glyph unicode="F" glyph-name="F" horiz-adv-x="434" d="M414 486H333V583Q333 620 314 642T264 665T213 643T193 583V388H336V341H193V0H85V341H45V388H85V527Q85 609 134 654T251 700T366 652T414 521V486Z" />
<glyph unicode="G" glyph-name="G" horiz-adv-x="569" d="M524 79Q524 -28 506 -77Q483 -141 442 -170Q387 -210 307 -210T171 -190T87 -144L106 -116Q128 -135 170 -152T265 -170Q363 -170 393 -119T424 55V65Q386 -10 296 -10Q188 -10 124 64T60 252V437Q60
551 124 625T296 700Q380 700 444 647T508 500V486H424L423 510Q420 581 389 623T296 665T201 623T168 510V181Q168 110 200 68T296 25Q416 25 423 181L424 202H524V79Z" />
<glyph unicode="H" glyph-name="H" horiz-adv-x="611" d="M541 690V0H432V340H178V0H70V690H178V388H432V690H541Z" />
<glyph unicode="I" glyph-name="I" horiz-adv-x="249" d="M179 0H70V690H179V0Z" />
<glyph unicode="J" glyph-name="J" horiz-adv-x="448" d="M388 167Q388 93 339 42T208 -10T73 42T20 168V204H100V115Q100 78 126 52T190 26T254 51T279 121V690H388V167Z" />
<glyph unicode="K" glyph-name="K" horiz-adv-x="498" d="M448 0H347V135Q347 196 342 235T320 308Q288 370 188 370H178V0H70V690H178V408Q243 408 284 452T326 565V690H435V637Q435 559 397 496T294 401Q370 383 402 328Q436 271 441 226Q448 164 448 111V0Z" />
<glyph unicode="L" glyph-name="L" horiz-adv-x="365" d="M362 0H70V690H178V47H362V0Z" />
<glyph unicode="M" glyph-name="M" horiz-adv-x="902" d="M842 0H732V514Q732 594 711 629T643 665T553 614T510 464V0H401V514Q401 594 379 629T311 665T222 613T178 464V0H70V690H178V578Q228 700 337 700Q466 700 502 553Q520 618 561 659T669 700Q750 700
796 639T842 468V0Z" />
<glyph unicode="N" glyph-name="N" horiz-adv-x="606" d="M546 447V0H436V498Q436 615 376 652Q353 665 323 665Q259 665 219 605T178 464V0H70V690H178V575Q199 634 240 667T333 700Q422 700 484 633T546 447Z" />
<glyph unicode="O" glyph-name="O" horiz-adv-x="596" d="M536 260Q536 136 475 63T298 -10T121 63T60 260V429Q60 554 121 627T298 700T475 627T536 429V260ZM426 182V508Q426 578 394 621T298 665T202 622T169 508V182Q169 111 201 68T297 25T393 68T426 182Z" />
<glyph unicode="P" glyph-name="P" horiz-adv-x="606" d="M546 244Q546 121 483 56T333 -10Q298 -10 269 4T221 42Q188 84 178 115V-200H70V690H178V580Q192 623 233 661T335 700Q431 700 488 633T546 443V244ZM437 193V493Q437 581 404 623T312 665T216 605T179
463V222Q179 148 218 87T323 25Q353 25 375 38T409 70T428 115Q437 153 437 193Z" />
<glyph unicode="Q" glyph-name="Q" horiz-adv-x="607" d="M537 -200H427V110Q414 67 373 29T271 -10Q175 -10 118 57T60 247V446Q60 568 124 634T273 700Q309 700 338 686T386 648Q415 610 427 575V690H537V-200ZM427 226V468Q427 542 388 603T283 665Q246 665
221 646T186 596Q169 545 169 496V197Q169 109 202 67T295 25T391 85T427 226Z" />
<glyph unicode="R" glyph-name="R" horiz-adv-x="558" d="M510 0H402V169Q402 325 259 325Q244 325 233 324V349Q289 349 338 380Q364 397 380 431T396 514Q396 590 357 623T233 657H178V0H70V690H265Q499 690 499 512Q499 388 338 339Q510 304 510 135V0Z" />
<glyph unicode="S" glyph-name="S" horiz-adv-x="482" d="M397 286Q447 243 447 167T391 41T243 -10T93 33T35 173V184H114V162Q114 93 142 59T230 25T322 55T354 131T321 207L116 385Q58 435 58 515T108 647T242 700T367 659T410 569V563H378Q378 595 347 630T263
665T179 639T148 559T186 470L397 286Z" />
<glyph unicode="T" glyph-name="T" horiz-adv-x="593" d="M573 500H469V533Q469 605 437 630Q419 644 402 650T351 665V0H242V665Q207 657 190 651T155 630Q123 605 123 532V500H20V532Q20 631 103 668Q174 700 296 700Q498 700 552 616Q573 582 573 532V500Z" />
<glyph unicode="U" glyph-name="U" horiz-adv-x="606" d="M536 0H427V110Q414 67 373 29T271 -10Q175 -10 118 57T60 247V690H168V197Q168 109 201 67T294 25T390 85T426 227V690H536V0Z" />
<glyph unicode="V" glyph-name="V" horiz-adv-x="467" d="M462 690L289 0H166L5 690H117L260 77L412 690H462Z" />
<glyph unicode="W" glyph-name="W" horiz-adv-x="775" d="M312 690H362L388 590L413 690H463L412 491L515 77L658 690H770L609 0H486L388 392L290 0H167L5 690H117L261 77L363 491L312 690Z" />
<glyph unicode="X" glyph-name="X" horiz-adv-x="708" d="M668 167Q668 94 615 42T484 -10T355 37Q301 -10 224 -10T93 42T40 167V179H120V115Q120 78 146 52T210 25T274 50T299 119V571Q299 615 274 640T211 665T146 639T120 575V511H40V523Q40 597 93 648T223
700T355 653Q405 700 483 700T615 649T668 523V511H588V575Q588 612 562 638T498 665T434 640T409 571V119Q409 75 434 50T497 25T562 51T588 115V179H668V167Z" />
<glyph unicode="Y" glyph-name="Y" horiz-adv-x="565" d="M540 621Q540 524 484 453T337 363V0H228V362Q138 381 82 452T25 621V690H134V548Q134 481 175 437T282 392T389 436T430 548V690H540V621Z" />
<glyph unicode="Z" glyph-name="Z" horiz-adv-x="525" d="M495 0H30L346 643H38V690H479L163 47H495V0Z" />
<glyph unicode="[" glyph-name="bracketleft" horiz-adv-x="266" d="M146 -10H246V-57H60V737H246V690H146V-10Z" />
<glyph unicode="\" glyph-name="backslash" horiz-adv-x="357" d="M50 690H136L307 0H221L50 690Z" />
<glyph unicode="]" glyph-name="bracketright" horiz-adv-x="266" d="M20 -10H120V690H20V737H206V-57H20V-10Z" />
<glyph unicode="^" glyph-name="asciicircum" horiz-adv-x="566" d="M283 690L466 407H408L281 597L158 407H100L283 690Z" />
<glyph unicode="_" glyph-name="underscore" horiz-adv-x="500" d="M0 -60V-10H500V-60H0Z" />
<glyph unicode="`" glyph-name="grave" horiz-adv-x="243" d="M61 626Q50 637 50 651T63 677T93 690T119 674L193 539L176 526L61 626Z" />
<glyph unicode="a" glyph-name="a" horiz-adv-x="444" d="M366 40T388 40T420 72L439 69Q439 61 434 45T421 18T397 -1T361 -10Q291 -10 281 64Q252 -10 181 -10Q121 -10 86 33T50 149V322Q50 394 85 437T186 480T279 412V470H366V74Q366 40 388 40ZM279 137V334Q279
380 257 415T196 450Q137 450 137 356V115Q137 22 195 22Q236 22 257 55T279 137Z" />
<glyph unicode="b" glyph-name="b" horiz-adv-x="426" d="M376 149Q376 76 341 33T241 -10T146 60V0H60V690H146V412Q175 480 240 480T340 437T376 322V149ZM288 115V356Q288 450 229 450Q190 450 168 415T146 334V137Q146 88 168 55T231 22Q288 22 288 115Z" />
<glyph unicode="c" glyph-name="c" horiz-adv-x="350" d="M315 122Q315 85 292 42Q280 19 256 5T197 -10Q128 -10 89 36T50 157V313Q50 389 89 434T196 480Q233 480 259 464T296 422Q315 380 315 349H289V357Q289 396 258 429Q239 450 209 450T158 425T137 352V118Q137
73 157 47T214 20T270 52T289 113V122H315Z" />
<glyph unicode="d" glyph-name="d" horiz-adv-x="426" d="M366 0H279V60Q251 -10 186 -10T86 33T50 149V322Q50 394 85 437T186 480T279 412V690H366V0ZM279 137V334Q279 380 257 415T196 450Q137 450 137 356V115Q137 22 195 22Q236 22 257 55T279 137Z" />
<glyph unicode="e" glyph-name="e" horiz-adv-x="381" d="M336 311V232H136V118Q136 20 216 20Q259 20 281 55T304 115H326Q326 57 279 16Q249 -10 203 -10Q124 -10 87 37T50 157V314Q50 387 90 433T203 480T306 432T336 311ZM279 262V353Q279 450 209 450Q136
450 136 353V262H279Z" />
<glyph unicode="f" glyph-name="f" horiz-adv-x="282" d="M272 515H249V554Q249 606 235 635T196 665Q158 665 158 587V300H243V270H158V0H73V270H40V300H73V557Q73 624 99 662T169 700Q229 700 249 644V720H272V515Z" />
<glyph unicode="g" glyph-name="g" horiz-adv-x="425" d="M365 470V71Q365 -167 188 -167Q137 -167 106 -142Q78 -121 64 -97L81 -83Q90 -100 118 -116T177 -133T229 -121T260 -82Q278 -39 278 44V60Q251 -10 186 -10T86 33T50 149V322Q50 395 85 437T181 480Q252
480 278 413V470H365ZM278 137V334Q278 380 257 415T196 450Q137 450 137 357V116Q137 22 195 22Q236 22 257 55T278 137Z" />
<glyph unicode="h" glyph-name="h" horiz-adv-x="453" d="M398 40Q417 40 429 72L448 69Q448 60 442 44T428 18Q409 -10 371 -10Q288 -10 288 89V356Q288 450 229 450Q190 450 168 415T146 334V0H60V690H146V412Q175 480 240 480T340 438T375 322V74Q375 40 398 40Z" />
<glyph unicode="i" glyph-name="i" horiz-adv-x="225" d="M147 651T147 623T134 575T104 554T73 574T60 623T73 670T103 690T134 671ZM169 40Q189 40 201 72L220 69Q220 60 214 44T201 18T178 -1T142 -10Q60 -10 60 89V470H146V74Q146 40 169 40Z" />
<glyph unicode="j" glyph-name="j" horiz-adv-x="220" d="M134 690T147 670T160 623T147 575T117 554T87 574T74 622T86 670T116 690ZM160 -111Q160 -210 78 -210Q37 -210 20 -182Q3 -157 0 -132L19 -128Q22 -140 31 -150T51 -160T67 -154T73 -143T74 -126V470H160V-111Z" />
<glyph unicode="k" glyph-name="k" horiz-adv-x="371" d="M329 0H252V140Q252 180 223 206T146 233V0H60V690H146V285L293 470H331L163 259Q236 254 282 210T329 104V0Z" />
<glyph unicode="l" glyph-name="l" horiz-adv-x="225" d="M141 -10Q60 -10 60 89V690H146V74Q146 40 168 40Q179 40 187 48T201 72L220 69Q220 61 215 45T201 18Q180 -10 141 -10Z" />
<glyph unicode="m" glyph-name="m" horiz-adv-x="682" d="M604 74Q604 40 625 40T658 72L677 69Q677 60 671 44T658 18T635 -1T599 -10Q517 -10 517 89V356Q517 450 458 450Q419 450 398 415T376 334V0H288V356Q288 450 229 450Q190 450 168 415T146 334V0H60V470H146V412Q175
480 245 480Q290 480 321 455T366 385Q377 429 404 454T474 480Q534 480 569 438T604 322V74Z" />
<glyph unicode="n" glyph-name="n" horiz-adv-x="453" d="M398 40Q417 40 429 72L448 69Q448 61 443 45T430 18T407 -1T371 -10Q288 -10 288 89V356Q288 450 229 450Q190 450 168 415T146 334V0H60V470H146V412Q175 480 240 480T340 438T375 322V74Q375 40 398 40Z" />
<glyph unicode="o" glyph-name="o" horiz-adv-x="416" d="M366 157Q366 84 325 37T208 -10T92 37T50 157V314Q50 387 91 433T208 480T324 434T366 314V157ZM279 118V353Q279 450 208 450T136 353V118Q136 20 207 20T279 118Z" />
<glyph unicode="p" glyph-name="p" horiz-adv-x="426" d="M376 149Q376 77 341 34T241 -10T146 59V-145H60V470H146V411Q176 480 240 480T340 438T376 322V149ZM288 115V356Q288 450 231 450Q190 450 168 417T146 334V137Q146 92 168 57T229 22Q288 22 288 115Z" />
<glyph unicode="q" glyph-name="q" horiz-adv-x="426" d="M366 470V-145H279V59Q251 -10 186 -10T86 33T50 149V322Q50 395 85 437T186 480T279 411V470H366ZM279 137V334Q279 383 258 416T195 450Q137 450 137 356V115Q137 22 196 22Q235 22 257 56T279 137Z" />
<glyph unicode="r" glyph-name="r" horiz-adv-x="346" d="M311 260H232V352Q232 444 146 444V0H60V470H146Q247 470 288 396V460H311V260Z" />
<glyph unicode="s" glyph-name="s" horiz-adv-x="356" d="M276 207Q316 170 316 117T278 27T169 -10Q132 -10 105 2T64 35Q40 72 40 113H66V107Q66 68 92 44T159 20Q240 20 240 90Q240 122 213 147L86 261Q42 301 42 356T78 445T174 480T261 447T289 365H263V372Q263
408 241 429T183 450T130 434T111 386T141 328L276 207Z" />
<glyph unicode="t" glyph-name="t" horiz-adv-x="254" d="M179 40Q198 40 210 72L229 69Q229 60 223 44T210 18T187 -1T151 -10Q69 -10 69 89V441H25V470H69V640H156V470H228V441H156V72Q156 40 179 40Z" />
<glyph unicode="u" glyph-name="u" horiz-adv-x="444" d="M366 74Q366 40 387 40T420 72L439 68Q439 60 434 44T421 17T397 -1T361 -10Q291 -10 281 64Q252 -10 181 -10Q121 -10 86 33T50 149V470H137V115Q137 22 195 22Q236 22 257 55T279 137V470H366V74Z" />
<glyph unicode="v" glyph-name="v" horiz-adv-x="337" d="M332 470L208 0H121L5 470H91L192 62L300 470H332Z" />
<glyph unicode="w" glyph-name="w" horiz-adv-x="545" d="M540 470L425 0H338L272 246L208 0H121L5 470H91L192 62L257 307L213 470H245L272 368L300 470H332L289 307L353 62L453 470H540Z" />
<glyph unicode="x" glyph-name="x" horiz-adv-x="438" d="M411 59T383 25T304 -10T219 25Q184 -10 134 -10T55 25T20 115H35Q39 74 60 48T117 22Q175 22 175 115V355Q175 450 117 450Q81 450 60 424T35 356H20Q26 411 54 445T134 480T219 446Q253 480 303 480T382
446T418 356H403Q398 397 377 423T320 450Q262 450 262 355V115Q262 22 320 22Q356 22 377 48T403 115H418Q411 59 383 25Z" />
<glyph unicode="y" glyph-name="y" horiz-adv-x="421" d="M396 424Q396 368 357 326T253 273V0H167V273Q104 284 65 326T25 424V470H104V388Q104 348 133 322T210 295T287 322T317 388V470H396V424Z" />
<glyph unicode="z" glyph-name="z" horiz-adv-x="355" d="M313 30V0H30L226 440H41V470H325L129 30H313Z" />
<glyph unicode="{" glyph-name="braceleft" horiz-adv-x="376" d="M168 154V179Q168 255 145 296T60 338V368Q121 368 144 409T168 527V537Q168 656 214 695Q238 716 270 723T356 730V700Q315 700 297 676T278 595V519Q278 387 182 353Q231 336 254 297T278 187V95Q278
39 296 15T356 -10V-40Q303 -40 271 -33T214 -4Q168 34 168 154Z" />
<glyph unicode="|" glyph-name="bar" horiz-adv-x="206" d="M146 -145H60V690H146V-145Z" />
<glyph unicode="}" glyph-name="braceright" horiz-adv-x="376" d="M208 179V154Q208 34 162 -4Q138 -25 106 -32T20 -40V-10Q61 -10 79 14T98 95V187Q98 257 121 296T194 353Q98 387 98 519V595Q98 652 80 676T20 700V730Q73 730 105 723T162 695Q208 656 208
537V527Q208 451 231 410T316 368V338Q255 338 232 297T208 179Z" />
<glyph unicode="~" glyph-name="asciitilde" horiz-adv-x="346" d="M212 388Q192 388 162 408T117 428Q88 428 63 408L50 420Q96 478 146 478Q161 478 189 461T240 444T282 458L296 444Q256 388 212 388Z" />
<glyph unicode="&#xa1;" glyph-name="exclamdown" horiz-adv-x="219" d="M159 -116T144 -130T110 -145T76 -131T60 -91L91 401H128L159 -91Q159 -116 144 -130ZM154 534T154 512T141 475T110 459T79 474T66 512T78 549T109 565T141 550Z" />
<glyph unicode="&#xa2;" glyph-name="cent" horiz-adv-x="385" d="M207 -60V-10Q138 -10 99 36T60 157V313Q60 389 99 434T206 480H207V530H237V476Q264 470 283 453T310 413Q325 375 325 349H299V357Q299 377 284 408T237 448V21Q269 28 284 58T299 113V122H325Q325
85 304 45T237 -6V-60H207ZM147 118Q147 78 163 52T207 21V448Q181 443 164 419T147 352V118Z" />
<glyph unicode="&#xa3;" glyph-name="sterling" horiz-adv-x="624" d="M60 347H112V436Q112 550 176 625T350 700Q435 700 499 647T564 499V486H478V508Q478 579 446 622T350 665T254 622T221 508V347H431V300H221V47H544V0H60V47H112V300H60V347Z" />
<glyph unicode="&#xa5;" glyph-name="yen" horiz-adv-x="635" d="M492 180H372V0H263V180H142V245H263V319H142V384H200Q136 417 98 480T60 621V690H169V548Q169 481 210 437T317 392T424 436T465 548V690H575V621Q575 543 537 480T434 384H492V319H372V245H492V180Z" />
<glyph unicode="&#xa7;" glyph-name="section" horiz-adv-x="396" d="M336 339Q336 262 272 228L296 207Q336 170 336 117T298 27T189 -10Q152 -10 125 2T84 35Q60 72 60 113H86V107Q86 68 112 44T179 20Q260 20 260 90Q260 122 233 147L106 261Q62 301 62 356Q62
430 125 464L106 481Q62 521 62 576T98 665T194 700T281 667T309 585H283V592Q283 628 261 649T203 670T150 654T131 606T161 548L296 427Q336 390 336 339ZM154 437Q131 420 131 388T161 328L239 258Q260 276 260 309T233 367L154 437Z" />
<glyph unicode="&#xa8;" glyph-name="dieresis" horiz-adv-x="340" d="M202 645T215 660T246 676T277 661T290 623T277 584T246 568T215 584T202 622ZM50 645T63 660T94 676T125 661T138 623T125 584T94 568T63 584T50 622Z" />
<glyph unicode="&#xa9;" glyph-name="copyright" horiz-adv-x="776" d="M716 270Q716 146 655 73T478 0H298Q182 0 121 73T60 270V419Q60 544 121 617T298 690H478Q594 690 655 617T716 419V270ZM606 192V498Q606 568 574 611T478 655H298Q234 655 202 612T169
498V192Q169 121 201 78T298 35H478Q541 35 573 78T606 192ZM524 224Q524 162 483 131T394 100Q328 100 289 146T250 261V414Q250 483 289 529T387 575T485 543T524 452V444H472V458Q472 501 453 527T394 553T336 527T316 458V217Q316 174 335 148T394 122T452
148T472 217V230H524V224Z" />
<glyph unicode="&#xaa;" glyph-name="ordfeminine" horiz-adv-x="315" d="M218 452Q218 435 228 435T245 451L255 450Q255 435 244 423T216 410Q180 410 176 447Q161 410 129 410T78 431T60 490V576Q60 612 78 633T128 655T175 621V650H218V452ZM175 484V582Q175
605 164 622T133 640Q104 640 104 593V473Q104 426 133 426Q153 426 164 443T175 484Z" />
<glyph unicode="&#xab;" glyph-name="guillemotleft" horiz-adv-x="435" d="M223 180Q224 179 224 175T217 164T203 156T193 159L53 302Q50 305 50 312T53 323L193 467Q196 470 202 470T216 464T224 453T223 447L133 313L223 180ZM384 180Q385 179 385 175T378
164T364 156T354 159L214 302Q211 305 211 312T214 323L354 467Q357 470 363 470T377 464T385 453T384 447L294 313L384 180Z" />
<glyph unicode="&#xae;" glyph-name="registered" horiz-adv-x="776" d="M716 270Q716 146 655 73T478 0H298Q182 0 121 73T60 270V419Q60 544 121 617T298 690H478Q594 690 655 617T716 419V270ZM606 192V498Q606 568 574 611T478 655H298Q234 655 202 612T169
498V192Q169 121 201 78T298 35H478Q541 35 573 78T606 192ZM529 112H464V239Q464 288 441 314T377 340Q367 340 361 339V354Q397 354 428 379T460 461Q460 554 361 554H327V112H262V574H380Q443 574 483 548T523 460Q523 420 496 391T425 348Q529 328 529 218V112Z"
/>
<glyph unicode="&#xaf;" glyph-name="overscore" horiz-adv-x="322" d="M272 640H50V690H272V640Z" />
<glyph unicode="&#xb0;" glyph-name="degree" horiz-adv-x="375" d="M242 700T278 662T315 566T279 470T188 432T97 469T60 565T96 662T187 700ZM219 483T241 506T263 564T241 624T188 649T135 625T112 565T134 507T187 483Z" />
<glyph unicode="&#xb4;" glyph-name="acute" horiz-adv-x="243" d="M124 674Q133 690 149 690T179 678T193 651T182 627L67 527L50 539L124 674Z" />
<glyph unicode="&#xb6;" glyph-name="paragraph" horiz-adv-x="537" d="M348 660V230H400V660H348ZM259 230V661H208Q136 661 136 563V328Q136 230 208 230H259ZM348 0H259V200H208Q133 200 92 247T50 367V524Q50 597 91 643T208 690H487V0H400V200H348V0Z" />
<glyph unicode="&#xb7;" glyph-name="middot" horiz-adv-x="118" d="M15 225T15 247T28 284T59 300T90 285T103 247T90 210T59 194T28 209Z" />
<glyph unicode="&#xb8;" glyph-name="cedilla" horiz-adv-x="204" d="M154 0Q154 -76 63 -148L50 -138Q65 -119 73 -89T84 -19V0H154Z" />
<glyph unicode="&#xba;" glyph-name="ordmasculine" horiz-adv-x="278" d="M218 494Q218 457 198 434T140 410T81 433T60 494V572Q60 608 81 631T139 655T197 632T218 572V494ZM175 474V592Q175 640 139 640T103 592V474Q103 425 139 425T175 474Z" />
<glyph unicode="&#xbb;" glyph-name="guillemotright" horiz-adv-x="435" d="M212 447Q211 449 211 453T219 463T233 470T242 467L382 323Q385 320 385 313T382 302L242 159Q239 156 233 156T219 163T211 175T212 180L302 313L212 447ZM51 447Q50 449 50 453T58
463T72 470T81 467L221 323Q224 320 224 313T221 302L81 159Q78 156 72 156T58 163T50 175T51 180L141 313L51 447Z" />
<glyph unicode="&#xbf;" glyph-name="questiondown" horiz-adv-x="447" d="M158 39V-16Q158 -110 237 -110Q273 -110 295 -85T317 -21V48H397V32Q397 -43 349 -94T219 -145T94 -95T50 31V47Q50 122 112 202L220 341Q238 365 238 391V413H283V390Q283 354 269 326T186
153Q158 97 158 39ZM305 534T305 512T292 475T261 459T230 474T217 512T230 549T261 565T292 550Z" />
<glyph unicode="&#xc0;" glyph-name="Agrave" horiz-adv-x="606" d="M536 0H427V110Q414 67 373 29T271 -10Q175 -10 118 57T60 247V446Q60 569 123 634T273 700Q309 700 338 685T386 648Q415 611 427 575V690H536V0ZM426 227V468Q426 542 387 603T283 665Q246
665 221 646T185 596Q168 545 168 497V197Q168 109 201 67T294 25T390 85T426 227ZM178 858Q167 869 167 883T180 909T210 922T236 906L310 771L293 758L178 858Z" />
<glyph unicode="&#xc1;" glyph-name="Aacute" horiz-adv-x="606" d="M536 0H427V110Q414 67 373 29T271 -10Q175 -10 118 57T60 247V446Q60 569 123 634T273 700Q309 700 338 685T386 648Q415 611 427 575V690H536V0ZM426 227V468Q426 542 387 603T283 665Q246
665 221 646T185 596Q168 545 168 497V197Q168 109 201 67T294 25T390 85T426 227ZM316 904Q325 920 341 920T371 908T385 881T374 857L259 757L242 769L316 904Z" />
<glyph unicode="&#xc2;" glyph-name="Acircumflex" horiz-adv-x="606" d="M536 0H427V110Q414 67 373 29T271 -10Q175 -10 118 57T60 247V446Q60 569 123 634T273 700Q309 700 338 685T386 648Q415 611 427 575V690H536V0ZM426 227V468Q426 542 387 603T283 665Q246
665 221 646T185 596Q168 545 168 497V197Q168 109 201 67T294 25T390 85T426 227ZM242 894Q251 911 271 911T300 894L375 768L363 758L272 855L179 758L167 768L242 894Z" />
<glyph unicode="&#xc3;" glyph-name="Atilde" horiz-adv-x="606" d="M536 0H427V110Q414 67 373 29T271 -10Q175 -10 118 57T60 247V446Q60 569 123 634T273 700Q309 700 338 685T386 648Q415 611 427 575V690H536V0ZM426 227V468Q426 542 387 603T283 665Q246
665 221 646T185 596Q168 545 168 497V197Q168 109 201 67T294 25T390 85T426 227ZM354 761T332 761T273 779T220 798Q189 798 160 769L147 780Q202 844 256 844Q273 844 304 828T360 811T406 825L407 826L419 816Q401 791 378 776Z" />
<glyph unicode="&#xc4;" glyph-name="Adieresis" horiz-adv-x="606" d="M536 0H427V110Q414 67 373 29T271 -10Q175 -10 118 57T60 247V446Q60 569 123 634T273 700Q309 700 338 685T386 648Q415 611 427 575V690H536V0ZM426 227V468Q426 542 387 603T283 665Q246
665 221 646T185 596Q168 545 168 497V197Q168 109 201 67T294 25T390 85T426 227ZM316 837T329 852T360 868T391 853T404 815T391 776T360 760T329 776T316 814ZM164 837T177 852T208 868T239 853T252 815T239 776T208 760T177 776T164 814Z" />
<glyph unicode="&#xc5;" glyph-name="Aring" horiz-adv-x="606" d="M536 0H427V110Q414 67 373 29T271 -10Q175 -10 118 57T60 247V446Q60 569 123 634T273 700Q309 700 338 685T386 648Q415 611 427 575V690H536V0ZM426 227V468Q426 542 387 603T283 665Q246
665 221 646T185 596Q168 545 168 497V197Q168 109 201 67T294 25T390 85T426 227ZM316 894T333 875T350 827T333 779T291 760T249 778T232 826T249 875T291 894ZM305 784T315 796T326 826T316 856T291 869T267 857T256 827T266 797T291 784Z" />
<glyph unicode="&#xc7;" glyph-name="Ccedilla" horiz-adv-x="562" d="M512 486H426V509Q426 579 394 622T298 665T202 622T169 509V182Q169 111 201 68T297 25T393 68T426 182V204H512V194Q512 104 459 55T335 -7Q334 -71 315 -109T243 -188L231 -178Q246 -159
254 -124T264 -39V-8Q169 4 115 76T60 254V436Q60 550 124 625T298 700Q383 700 447 647T512 499V486Z" />
<glyph unicode="&#xc8;" glyph-name="Egrave" horiz-adv-x="567" d="M512 486H426V508Q426 579 394 622T298 665T202 622T169 508V388H433V341H169V182Q169 111 201 68T297 25T393 68T426 182V204H512V194Q512 140 491 99T436 34Q370 -10 298 -10Q189 -10 125
65T60 254V436Q60 550 124 625T298 700Q383 700 447 647T512 499V486ZM218 858Q207 869 207 883T220 909T250 922T276 906L350 771L333 758L218 858Z" />
<glyph unicode="&#xc9;" glyph-name="Eacute" horiz-adv-x="567" d="M512 486H426V508Q426 579 394 622T298 665T202 622T169 508V388H433V341H169V182Q169 111 201 68T297 25T393 68T426 182V204H512V194Q512 140 491 99T436 34Q370 -10 298 -10Q189 -10 125
65T60 254V436Q60 550 124 625T298 700Q383 700 447 647T512 499V486ZM333 906Q342 922 358 922T388 910T402 883T391 859L276 759L259 771L333 906Z" />
<glyph unicode="&#xca;" glyph-name="Ecircumflex" horiz-adv-x="567" d="M512 486H426V508Q426 579 394 622T298 665T202 622T169 508V388H433V341H169V182Q169 111 201 68T297 25T393 68T426 182V204H512V194Q512 140 491 99T436 34Q370 -10 298 -10Q189 -10
125 65T60 254V436Q60 550 124 625T298 700Q383 700 447 647T512 499V486ZM267 898Q276 915 296 915T325 898L400 772L388 762L297 859L204 762L192 772L267 898Z" />
<glyph unicode="&#xcb;" glyph-name="Edieresis" horiz-adv-x="567" d="M512 486H426V508Q426 579 394 622T298 665T202 622T169 508V388H433V341H169V182Q169 111 201 68T297 25T393 68T426 182V204H512V194Q512 140 491 99T436 34Q370 -10 298 -10Q189 -10 125
65T60 254V436Q60 550 124 625T298 700Q383 700 447 647T512 499V486ZM326 837T339 852T370 868T401 853T414 815T401 776T370 760T339 776T326 814ZM174 837T187 852T218 868T249 853T262 815T249 776T218 760T187 776T174 814Z" />
<glyph unicode="&#xcc;" glyph-name="Igrave" horiz-adv-x="249" d="M179 0H70V690H179V0ZM46 855Q35 866 35 880T48 906T78 919T104 903L178 768L161 755L46 855Z" />
<glyph unicode="&#xcd;" glyph-name="Iacute" horiz-adv-x="249" d="M179 0H70V690H179V0ZM144 903Q153 919 169 919T199 907T213 880T202 856L87 756L70 768L144 903Z" />
<glyph unicode="&#xce;" glyph-name="Icircumflex" horiz-adv-x="249" d="M179 0H70V690H179V0ZM97 896Q106 913 126 913T155 896L230 770L218 760L127 857L34 760L22 770L97 896Z" />
<glyph unicode="&#xcf;" glyph-name="Idieresis" horiz-adv-x="249" d="M179 0H70V690H179V0ZM160 836T173 851T204 867T235 852T248 814T235 775T204 759T173 775T160 813ZM8 836T21 851T52 867T83 852T96 814T83 775T52 759T21 775T8 813Z" />
<glyph unicode="&#xd0;" glyph-name="Eth" horiz-adv-x="577" d="M517 269Q517 153 446 77T262 0H71V365H0V430H71V690H262Q374 690 445 614T517 421V269ZM303 365H179V34H225Q311 34 360 82T409 222V468Q409 559 360 607T225 656H179V430H303V365Z" />
<glyph unicode="&#xd1;" glyph-name="Ntilde" horiz-adv-x="606" d="M546 447V0H436V498Q436 615 376 652Q353 665 323 665Q259 665 219 605T178 464V0H70V690H178V575Q199 634 240 667T333 700Q422 700 484 633T546 447ZM399 761T377 761T318 779T265 798Q234
798 205 769L192 780Q247 844 301 844Q318 844 349 828T405 811T451 825L452 826L464 816Q446 791 423 776Z" />
<glyph unicode="&#xd2;" glyph-name="Ograve" horiz-adv-x="596" d="M536 260Q536 136 475 63T298 -10T121 63T60 260V429Q60 554 121 627T298 700T475 627T536 429V260ZM426 182V508Q426 578 394 621T298 665T202 622T169 508V182Q169 111 201 68T297 25T393
68T426 182ZM208 858Q197 869 197 883T210 909T240 922T266 906L340 771L323 758L208 858Z" />
<glyph unicode="&#xd3;" glyph-name="Oacute" horiz-adv-x="596" d="M536 260Q536 136 475 63T298 -10T121 63T60 260V429Q60 554 121 627T298 700T475 627T536 429V260ZM426 182V508Q426 578 394 621T298 665T202 622T169 508V182Q169 111 201 68T297 25T393
68T426 182ZM336 906Q345 922 361 922T391 910T405 883T394 859L279 759L262 771L336 906Z" />
<glyph unicode="&#xd4;" glyph-name="Ocircumflex" horiz-adv-x="596" d="M536 260Q536 136 475 63T298 -10T121 63T60 260V429Q60 554 121 627T298 700T475 627T536 429V260ZM426 182V508Q426 578 394 621T298 665T202 622T169 508V182Q169 111 201 68T297 25T393
68T426 182ZM265 894Q274 911 294 911T323 894L398 768L386 758L295 855L202 758L190 768L265 894Z" />
<glyph unicode="&#xd5;" glyph-name="Otilde" horiz-adv-x="596" d="M536 260Q536 136 475 63T298 -10T121 63T60 260V429Q60 554 121 627T298 700T475 627T536 429V260ZM426 182V508Q426 578 394 621T298 665T202 622T169 508V182Q169 111 201 68T297 25T393
68T426 182ZM374 761T352 761T293 779T240 798Q209 798 180 769L167 780Q222 844 276 844Q293 844 324 828T380 811T426 825L427 826L439 816Q421 791 398 776Z" />
<glyph unicode="&#xd6;" glyph-name="Odieresis" horiz-adv-x="596" d="M536 260Q536 136 475 63T298 -10T121 63T60 260V429Q60 554 121 627T298 700T475 627T536 429V260ZM426 182V508Q426 578 394 621T298 665T202 622T169 508V182Q169 111 201 68T297 25T393
68T426 182ZM329 838T342 853T373 869T404 854T417 816T404 777T373 761T342 777T329 815ZM177 838T190 853T221 869T252 854T265 816T252 777T221 761T190 777T177 815Z" />
<glyph unicode="&#xd8;" glyph-name="Oslash" horiz-adv-x="596" d="M298 665Q234 665 202 622T169 509V182Q169 72 239 37L312 665H298ZM298 25Q361 25 393 68T426 182V509Q426 618 357 653L284 25H298ZM536 430V260Q536 136 475 63T298 -10H280L277 -39L231
-35L235 -3Q149 16 105 85T60 260V430Q60 554 121 627T298 700H316L319 731L365 726L361 692Q446 674 491 605T536 430Z" />
<glyph unicode="&#xd9;" glyph-name="Ugrave" horiz-adv-x="606" d="M536 0H427V110Q414 67 373 29T271 -10Q175 -10 118 57T60 247V690H168V197Q168 109 201 67T294 25T390 85T426 227V690H536V0ZM203 855Q192 866 192 880T205 906T235 919T261 903L335 768L318
755L203 855Z" />
<glyph unicode="&#xda;" glyph-name="Uacute" horiz-adv-x="606" d="M536 0H427V110Q414 67 373 29T271 -10Q175 -10 118 57T60 247V690H168V197Q168 109 201 67T294 25T390 85T426 227V690H536V0ZM331 906Q340 922 356 922T386 910T400 883T389 859L274 759L257
771L331 906Z" />
<glyph unicode="&#xdb;" glyph-name="Ucircumflex" horiz-adv-x="606" d="M536 0H427V110Q414 67 373 29T271 -10Q175 -10 118 57T60 247V690H168V197Q168 109 201 67T294 25T390 85T426 227V690H536V0ZM267 894Q276 911 296 911T325 894L400 768L388 758L297
855L204 758L192 768L267 894Z" />
<glyph unicode="&#xdc;" glyph-name="Udieresis" horiz-adv-x="606" d="M536 0H427V110Q414 67 373 29T271 -10Q175 -10 118 57T60 247V690H168V197Q168 109 201 67T294 25T390 85T426 227V690H536V0ZM329 837T342 852T373 868T404 853T417 815T404 776T373 760T342
776T329 814ZM177 837T190 852T221 868T252 853T265 815T252 776T221 760T190 776T177 814Z" />
<glyph unicode="&#xdd;" glyph-name="Yacute" horiz-adv-x="565" d="M540 621Q540 524 484 453T337 363V0H228V362Q138 381 82 452T25 621V690H134V548Q134 481 175 437T282 392T389 436T430 548V690H540V621ZM338 906Q347 922 363 922T393 910T407 883T396 859L281
759L264 771L338 906Z" />
<glyph unicode="&#xde;" glyph-name="Thorn" horiz-adv-x="606" d="M546 244Q546 121 483 56T333 -10Q298 -10 269 4T221 42Q188 84 178 115V-200H70V690H178V500Q192 543 233 581T335 620Q431 620 488 553T546 363V244ZM437 193V413Q437 501 404 543T312 585T216
525T179 383V222Q179 148 218 87T323 25Q353 25 375 38T409 70T428 115Q437 153 437 193Z" />
<glyph unicode="&#xdf;" glyph-name="germandbls" horiz-adv-x="534" d="M158 0H73V270H40V300H73V557Q73 614 110 657T204 700T290 672T329 608V695H352V485Q323 485 306 465T289 415T319 353L454 207Q494 164 494 114T457 27T348 -10T248 28T218 113H245V107Q245
68 270 44T337 20Q418 20 418 90Q418 117 391 147L265 286Q220 336 220 383T250 465T329 505Q325 564 298 614T226 665Q195 665 177 641T158 587V0Z" />
<glyph unicode="&#xe0;" glyph-name="agrave" horiz-adv-x="444" d="M366 40T388 40T420 72L439 69Q439 61 434 45T421 18T397 -1T361 -10Q291 -10 281 64Q252 -10 181 -10Q121 -10 86 33T50 149V322Q50 394 85 437T186 480T279 412V470H366V74Q366 40 388 40ZM279
137V334Q279 380 257 415T196 450Q137 450 137 356V115Q137 22 195 22Q236 22 257 55T279 137ZM114 626Q103 637 103 651T116 677T146 690T172 674L246 539L229 526L114 626Z" />
<glyph unicode="&#xe1;" glyph-name="aacute" horiz-adv-x="444" d="M366 40T388 40T420 72L439 69Q439 61 434 45T421 18T397 -1T361 -10Q291 -10 281 64Q252 -10 181 -10Q121 -10 86 33T50 149V322Q50 394 85 437T186 480T279 412V470H366V74Q366 40 388 40ZM279
137V334Q279 380 257 415T196 450Q137 450 137 356V115Q137 22 195 22Q236 22 257 55T279 137ZM243 674Q252 690 268 690T298 678T312 651T301 627L186 527L169 539L243 674Z" />
<glyph unicode="&#xe2;" glyph-name="acircumflex" horiz-adv-x="444" d="M366 40T388 40T420 72L439 69Q439 61 434 45T421 18T397 -1T361 -10Q291 -10 281 64Q252 -10 181 -10Q121 -10 86 33T50 149V322Q50 394 85 437T186 480T279 412V470H366V74Q366 40 388
40ZM279 137V334Q279 380 257 415T196 450Q137 450 137 356V115Q137 22 195 22Q236 22 257 55T279 137ZM180 673Q189 690 209 690T238 673L313 547L301 537L210 634L117 537L105 547L180 673Z" />
<glyph unicode="&#xe3;" glyph-name="atilde" horiz-adv-x="444" d="M366 40T388 40T420 72L439 69Q439 61 434 45T421 18T397 -1T361 -10Q291 -10 281 64Q252 -10 181 -10Q121 -10 86 33T50 149V322Q50 394 85 437T186 480T279 412V470H366V74Q366 40 388 40ZM279
137V334Q279 380 257 415T196 450Q137 450 137 356V115Q137 22 195 22Q236 22 257 55T279 137ZM286 536T264 536T205 554T152 573Q121 573 92 544L79 555Q134 619 188 619Q205 619 236 603T292 586T338 600L339 601L351 591Q333 566 310 551Z" />
<glyph unicode="&#xe4;" glyph-name="adieresis" horiz-adv-x="444" d="M366 40T388 40T420 72L439 69Q439 61 434 45T421 18T397 -1T361 -10Q291 -10 281 64Q252 -10 181 -10Q121 -10 86 33T50 149V322Q50 394 85 437T186 480T279 412V470H366V74Q366 40 388
40ZM279 137V334Q279 380 257 415T196 450Q137 450 137 356V115Q137 22 195 22Q236 22 257 55T279 137ZM240 645T253 660T284 676T315 661T328 623T315 584T284 568T253 584T240 622ZM88 645T101 660T132 676T163 661T176 623T163 584T132 568T101 584T88 622Z"
/>
<glyph unicode="&#xe5;" glyph-name="aring" horiz-adv-x="444" d="M366 40T388 40T420 72L439 69Q439 61 434 45T421 18T397 -1T361 -10Q291 -10 281 64Q252 -10 181 -10Q121 -10 86 33T50 149V322Q50 394 85 437T186 480T279 412V470H366V74Q366 40 388 40ZM279
137V334Q279 380 257 415T196 450Q137 450 137 356V115Q137 22 195 22Q236 22 257 55T279 137ZM216 690T233 671T250 623T233 575T191 556T149 574T132 622T149 671T191 690ZM205 580T215 592T226 622T216 652T191 665T167 653T156 623T166 593T191 580Z" />
<glyph unicode="&#xe7;" glyph-name="ccedilla" horiz-adv-x="350" d="M315 349H289V357Q289 396 258 429Q239 450 209 450T158 425T137 352V118Q137 73 157 47T214 20T270 52T289 113V122H315Q315 86 296 47T232 -5Q229 -77 140 -148L127 -138Q142 -119 150 -89T161
-19V-6Q108 5 79 48T50 157V313Q50 389 89 434T196 480Q233 480 259 464T296 422Q315 380 315 349Z" />
<glyph unicode="&#xe8;" glyph-name="egrave" horiz-adv-x="381" d="M336 311V232H136V118Q136 20 216 20Q259 20 281 55T304 115H326Q326 57 279 16Q249 -10 203 -10Q124 -10 87 37T50 157V314Q50 387 90 433T203 480T306 432T336 311ZM279 262V353Q279 450 209
450Q136 450 136 353V262H279ZM114 626Q103 637 103 651T116 677T146 690T172 674L246 539L229 526L114 626Z" />
<glyph unicode="&#xe9;" glyph-name="eacute" horiz-adv-x="381" d="M336 311V232H136V118Q136 20 216 20Q259 20 281 55T304 115H326Q326 57 279 16Q249 -10 203 -10Q124 -10 87 37T50 157V314Q50 387 90 433T203 480T306 432T336 311ZM279 262V353Q279 450 209
450Q136 450 136 353V262H279ZM243 674Q252 690 268 690T298 678T312 651T301 627L186 527L169 539L243 674Z" />
<glyph unicode="&#xea;" glyph-name="ecircumflex" horiz-adv-x="381" d="M336 311V232H136V118Q136 20 216 20Q259 20 281 55T304 115H326Q326 57 279 16Q249 -10 203 -10Q124 -10 87 37T50 157V314Q50 387 90 433T203 480T306 432T336 311ZM279 262V353Q279
450 209 450Q136 450 136 353V262H279ZM171 673Q180 690 200 690T229 673L304 547L292 537L201 634L108 537L96 547L171 673Z" />
<glyph unicode="&#xeb;" glyph-name="edieresis" horiz-adv-x="381" d="M336 311V232H136V118Q136 20 216 20Q259 20 281 55T304 115H326Q326 57 279 16Q249 -10 203 -10Q124 -10 87 37T50 157V314Q50 387 90 433T203 480T306 432T336 311ZM279 262V353Q279 450
209 450Q136 450 136 353V262H279ZM232 645T245 660T276 676T307 661T320 623T307 584T276 568T245 584T232 622ZM80 645T93 660T124 676T155 661T168 623T155 584T124 568T93 584T80 622Z" />
<glyph unicode="&#xec;" glyph-name="igrave" horiz-adv-x="225" d="M169 40Q189 40 201 72L220 69Q220 60 214 44T201 18T178 -1T142 -10Q60 -10 60 89V470H146V74Q146 40 169 40ZM31 626Q20 637 20 651T33 677T63 690T89 674L163 539L146 526L31 626Z" />
<glyph unicode="&#xed;" glyph-name="iacute" horiz-adv-x="225" d="M169 40Q189 40 201 72L220 69Q220 60 214 44T201 18T178 -1T142 -10Q60 -10 60 89V470H146V74Q146 40 169 40ZM143 674Q152 690 168 690T198 678T212 651T201 627L86 527L69 539L143 674Z" />
<glyph unicode="&#xee;" glyph-name="icircumflex" horiz-adv-x="225" d="M169 40Q189 40 201 72L220 69Q220 60 214 44T201 18T178 -1T142 -10Q60 -10 60 89V470H146V74Q146 40 169 40ZM80 673Q89 690 109 690T138 673L213 547L201 537L110 634L17 537L5 547L80 673Z" />
<glyph unicode="&#xef;" glyph-name="idieresis" horiz-adv-x="225" d="M169 40Q189 40 201 72L220 69Q220 60 214 44T201 18T178 -1T142 -10Q60 -10 60 89V470H146V74Q146 40 169 40ZM142 645T155 660T186 676T217 661T230 623T217 584T186 568T155 584T142 622ZM-10
645T3 660T34 676T65 661T78 623T65 584T34 568T3 584T-10 622Z" />
<glyph unicode="&#xf0;" glyph-name="eth" horiz-adv-x="426" d="M366 0H279V60Q251 -10 186 -10T86 33T50 149V322Q50 394 85 437T186 480T279 412V560H169V625H279V690H366V625H426V560H366V0ZM279 334Q279 380 257 415T196 450Q137 450 137 356V115Q137 22
195 22Q236 22 257 55T279 137V334Z" />
<glyph unicode="&#xf1;" glyph-name="ntilde" horiz-adv-x="453" d="M398 40Q417 40 429 72L448 69Q448 61 443 45T430 18T407 -1T371 -10Q288 -10 288 89V356Q288 450 229 450Q190 450 168 415T146 334V0H60V470H146V412Q175 480 240 480T340 438T375 322V74Q375
40 398 40ZM303 536T281 536T222 554T169 573Q138 573 109 544L96 555Q151 619 205 619Q222 619 253 603T309 586T355 600L356 601L368 591Q350 566 327 551Z" />
<glyph unicode="&#xf2;" glyph-name="ograve" horiz-adv-x="416" d="M366 157Q366 84 325 37T208 -10T92 37T50 157V314Q50 387 91 433T208 480T324 434T366 314V157ZM279 118V353Q279 450 208 450T136 353V118Q136 20 207 20T279 118ZM114 626Q103 637 103 651T116
677T146 690T172 674L246 539L229 526L114 626Z" />
<glyph unicode="&#xf3;" glyph-name="oacute" horiz-adv-x="416" d="M366 157Q366 84 325 37T208 -10T92 37T50 157V314Q50 387 91 433T208 480T324 434T366 314V157ZM279 118V353Q279 450 208 450T136 353V118Q136 20 207 20T279 118ZM243 674Q252 690 268 690T298
678T312 651T301 627L186 527L169 539L243 674Z" />
<glyph unicode="&#xf4;" glyph-name="ocircumflex" horiz-adv-x="416" d="M366 157Q366 84 325 37T208 -10T92 37T50 157V314Q50 387 91 433T208 480T324 434T366 314V157ZM279 118V353Q279 450 208 450T136 353V118Q136 20 207 20T279 118ZM174 673Q183 690 203
690T232 673L307 547L295 537L204 634L111 537L99 547L174 673Z" />
<glyph unicode="&#xf5;" glyph-name="otilde" horiz-adv-x="416" d="M366 157Q366 84 325 37T208 -10T92 37T50 157V314Q50 387 91 433T208 480T324 434T366 314V157ZM279 118V353Q279 450 208 450T136 353V118Q136 20 207 20T279 118ZM286 536T264 536T205 554T152
573Q121 573 92 544L79 555Q134 619 188 619Q205 619 236 603T292 586T338 600L339 601L351 591Q333 566 310 551Z" />
<glyph unicode="&#xf6;" glyph-name="odieresis" horiz-adv-x="416" d="M366 157Q366 84 325 37T208 -10T92 37T50 157V314Q50 387 91 433T208 480T324 434T366 314V157ZM279 118V353Q279 450 208 450T136 353V118Q136 20 207 20T279 118ZM242 645T255 660T286
676T317 661T330 623T317 584T286 568T255 584T242 622ZM90 645T103 660T134 676T165 661T178 623T165 584T134 568T103 584T90 622Z" />
<glyph unicode="&#xf8;" glyph-name="oslash" horiz-adv-x="416" d="M136 353V118Q136 52 169 31L214 450L208 451Q136 451 136 353ZM210 20Q279 20 279 118V353Q279 418 248 440L203 21L208 20H210ZM366 314V157Q366 84 325 37T208 -10H200L197 -39L162 -35L165
-4Q110 8 80 52T50 157V314Q50 387 91 433T208 480H217L220 511L255 507L251 475Q306 463 336 419T366 314Z" />
<glyph unicode="&#xf9;" glyph-name="ugrave" horiz-adv-x="444" d="M366 74Q366 40 387 40T420 72L439 68Q439 60 434 44T421 17T397 -1T361 -10Q291 -10 281 64Q252 -10 181 -10Q121 -10 86 33T50 149V470H137V115Q137 22 195 22Q236 22 257 55T279 137V470H366V74ZM104
626Q93 637 93 651T106 677T136 690T162 674L236 539L219 526L104 626Z" />
<glyph unicode="&#xfa;" glyph-name="uacute" horiz-adv-x="444" d="M366 74Q366 40 387 40T420 72L439 68Q439 60 434 44T421 17T397 -1T361 -10Q291 -10 281 64Q252 -10 181 -10Q121 -10 86 33T50 149V470H137V115Q137 22 195 22Q236 22 257 55T279 137V470H366V74ZM243
674Q252 690 268 690T298 678T312 651T301 627L186 527L169 539L243 674Z" />
<glyph unicode="&#xfb;" glyph-name="ucircumflex" horiz-adv-x="444" d="M366 74Q366 40 387 40T420 72L439 68Q439 60 434 44T421 17T397 -1T361 -10Q291 -10 281 64Q252 -10 181 -10Q121 -10 86 33T50 149V470H137V115Q137 22 195 22Q236 22 257 55T279 137V470H366V74ZM181
673Q190 690 210 690T239 673L314 547L302 537L211 634L118 537L106 547L181 673Z" />
<glyph unicode="&#xfc;" glyph-name="udieresis" horiz-adv-x="444" d="M366 74Q366 40 387 40T420 72L439 68Q439 60 434 44T421 17T397 -1T361 -10Q291 -10 281 64Q252 -10 181 -10Q121 -10 86 33T50 149V470H137V115Q137 22 195 22Q236 22 257 55T279 137V470H366V74ZM245
645T258 660T289 676T320 661T333 623T320 584T289 568T258 584T245 622ZM93 645T106 660T137 676T168 661T181 623T168 584T137 568T106 584T93 622Z" />
<glyph unicode="&#xfd;" glyph-name="yacute" horiz-adv-x="421" d="M396 424Q396 368 357 326T253 273V0H167V273Q104 284 65 326T25 424V470H104V388Q104 348 133 322T210 295T287 322T317 388V470H396V424ZM256 674Q265 690 281 690T311 678T325 651T314 627L199
527L182 539L256 674Z" />
<glyph unicode="&#xfe;" glyph-name="thorn" horiz-adv-x="426" d="M376 149Q376 77 341 34T241 -10T146 59V-145H60V690H146V411Q176 480 240 480T340 438T376 322V149ZM288 115V356Q288 450 231 450Q190 450 168 417T146 334V137Q146 92 168 57T229 22Q288 22 288 115Z" />
<glyph unicode="&#xff;" glyph-name="ydieresis" horiz-adv-x="421" d="M396 424Q396 368 357 326T253 273V0H167V273Q104 284 65 326T25 424V470H104V388Q104 348 133 322T210 295T287 322T317 388V470H396V424ZM242 645T255 660T286 676T317 661T330 623T317
584T286 568T255 584T242 622ZM90 645T103 660T134 676T165 661T178 623T165 584T134 568T103 584T90 622Z" />
<glyph unicode="&#x2013;" glyph-name="endash" horiz-adv-x="500" d="M500 250H0V300H500V250Z" />
<glyph unicode="&#x2014;" glyph-name="emdash" horiz-adv-x="1000" d="M1000 250H0V300H1000V250Z" />
<glyph unicode="&#x2018;" glyph-name="quoteleft" horiz-adv-x="204" d="M50 480Q50 551 70 600T142 688L154 678Q139 659 131 624T121 539V480H50Z" />
<glyph unicode="&#x2019;" glyph-name="quoteright" horiz-adv-x="174" d="M154 690Q154 619 134 570T63 482L50 492Q65 511 73 546T84 631V690H154Z" />
<glyph unicode="&#x201a;" glyph-name="quotesinglbase" horiz-adv-x="204" d="M154 110Q154 39 134 -10T63 -98L50 -88Q65 -69 73 -34T84 51V110H154Z" />
<glyph unicode="&#x201c;" glyph-name="quotedblleft" horiz-adv-x="345" d="M191 480Q191 551 211 600T283 688L295 678Q280 659 272 624T262 539V480H191ZM50 480Q50 551 70 600T142 688L154 678Q139 659 131 624T121 539V480H50Z" />
<glyph unicode="&#x201d;" glyph-name="quotedblright" horiz-adv-x="345" d="M154 690Q154 619 134 570T63 482L50 492Q65 511 73 546T84 631V690H154ZM295 690Q295 619 275 570T204 482L191 492Q206 511 214 546T225 631V690H295Z" />
<glyph unicode="&#x201e;" glyph-name="quotedblbase" horiz-adv-x="345" d="M154 110Q154 39 134 -10T63 -98L50 -88Q65 -69 73 -34T84 51V110H154ZM295 110Q295 39 275 -10T204 -98L191 -88Q206 -69 214 -34T225 51V110H295Z" />
<glyph unicode="&#x2022;" glyph-name="bullet" horiz-adv-x="296" d="M60 205T60 242T85 304T148 330T210 305T236 242T211 180T148 154T86 179Z" />
<glyph unicode="&#x2039;" glyph-name="guilsinglleft" horiz-adv-x="274" d="M223 180Q224 179 224 175T217 164T203 156T193 159L53 302Q50 305 50 312T53 323L193 467Q196 470 202 470T216 464T224 453T223 447L133 313L223 180Z" />
<glyph unicode="&#x203a;" glyph-name="guilsinglright" horiz-adv-x="274" d="M51 447Q50 449 50 453T58 463T72 470T81 467L221 323Q224 320 224 313T221 302L81 159Q78 156 72 156T58 163T50 175T51 180L141 313L51 447Z" />
</font>
</defs>
</svg>
